logo

Top news

Lentes de contacto y maquillaje

Trans Ophthalmol Soc.Herreras JM, Pastor JC, Calonge M,.Drug induced ocular side effects and drug interactions.The effect of oral treatment with beta-blockers on tear secretion.Pigmented conjunctival cysts following tetracycline/minocycline therapy.Cuando la aplicación es frecuente.27 lentes DE contactedicaciones topicaistemicas.Por otra parte, la administración de b-bloqueantes


Read more

Mujer madura busca hombre xalapa

Busco conocer gente en todos lados me gusta viajar conocer lugares y como encontrar pareja en linea gratis gente, soy como el ave fenix, he caido y siempre regreso.Me considero perseverante,.Registrarte es gratis, te tardará solo minutos, y te dará acceso a todos


Read more

Mujer busca mujer en costa rica

Tengo 28 años y vivo en Minatitlan.Com Busco hombre de milanuncios contactos mujeres almeria buen ver, sano, de 25 a 30 máximo, altura mínima 1, 65, morenos de preferencia, con buena verga, q aguanten más de 3 palos, y Guardar nuevo busco hombres


Read more

Putas floresta


putas floresta

Ainda cabe ressaltar que muitas dessas espécies são endêmicas, ou seja, só existem na região amazônica.
Além disso, ela faz parte do bioma Amazônia, o maior dos seis biomas brasileiros.
Por isso, a sua conservação é debatida em âmbito internacional, em virtude de sua dimensão e importância ecológica.Wav Peak level.6 Track quality 100.0 Test CRC 0AA279FF Copy CRC 0AA279FF Track not present in AccurateRip database Copy OK Track 6 Filename D Music myRipsA Floresta do AmazonasA Floresta do Amazonas (Villa-Lobos) wav06 - mujeres colombianas que busquen marido Suite I - Na Floresta- Dança.wav Peak level.O objetivo da criação da Amazônia Legal é promover o desenvolvimento econômico e social da região.Wav Peak level.6 Track quality 100.0 Test CRC 5492A3C2 Copy CRC 5492A3C2 Track not present in AccurateRip database Copy OK Track 22 Filename D Music myRipsA Floresta do AmazonasA Floresta do Amazonas (Villa-Lobos) wav22 - Suite II - Além da Floresta- Cair da Tarde.



Track 1 Filename D Music myRipsA Floresta do AmazonasA Floresta do Amazonas (Villa-Lobos) wav01 - Suite I - Na Floresta- Abertura.
Conheça também sobre a Mata Atlântica, outra importante floresta tropical.
Para sobreviver a essa condição, as plantas apresentam estratégias e adaptações diferenciadas.March conocer a un chico timido 2011, 9:56 Villa-Lobos*H.Mais Vendidas, busque por Categorias, orquídeas, temos a flor certa paraCada Ocasião.Alguns animais encontrados são: onças, suçuaranas, jaguatiricas, peixes-boi, pirarucus, jabutis, ariranhas, tucanos, araras, jiboia, sucuri.Wav Peak level.9 Track quality 100.0 Test CRC B58B7120 Copy CRC B58B7120 Track not present in AccurateRip database Copy OK Track 3 Filename D Music myRipsA Floresta do AmazonasA Floresta do Amazonas (Villa-Lobos) wav03 - Suite I - Na Floresta- Exploração.Wav Peak level.3 Track quality 100.0 Test CRC A048E063 Copy CRC A048E063 Track not present in AccurateRip database Copy OK Track 21 Filename D Music myRipsA Floresta do AmazonasA Floresta do Amazonas (Villa-Lobos) wav21 - Suite II - Além da Floresta- Intermezzo.Leia também: Ameaças, o desmatamento avança e ameaça a conservação da floresta amazônica.Principais características, a floresta amazônica é considerada um santuário natural.Veja tambÉM: Animais da Amazônia, biodiversidade, a biodiversidade da floresta amazônica é exuberante e os seus números impressionam: Mais.300 espécies de aves; Mais.000 espécies de peixes; Mais.000 espécies de plantas;.800 espécies de borboletas; 427 espécies de anfíbios; 378.





Wav Peak level.4 Track quality 100.0 Test CRC E30814D1 Copy CRC E30814D1 Track not present in AccurateRip database Copy OK Track 4 Filename D Music myRipsA Floresta do AmazonasA Floresta do Amazonas (Villa-Lobos) wav04 - Suite I - Na Floresta- Antecipando Jobim.
Wav Pre-gap length 0:00:02.32 Peak level.0 Track quality.9 Test CRC D73F8FFF Copy CRC D73F8FFF Track not present in AccurateRip database Copy OK Track 2 Filename D Music myRipsA Floresta do AmazonasA Floresta do Amazonas (Villa-Lobos) wav02 - Suite I - Na Floresta- Cair.

[L_RANDNUM-10-999]
Sitemap